Página Inicial



twitter

Facebook

Orkut

  Dicas
|

COMO CRIAR UM CD PROTEGIDO CONTRA CÓPIA

Antonio Vilhena - 22/07/2001

Método 1

A seguir vemos um exemplo de proteger contra cópia um CD, através da adição de uma faixa de dados "dummy", de tal modo que quando for copiado, o CD de cópia conterá duas faixas de dados (o que na realidade causa uma falha no TOC - Table of Contents - do CD, gerando erro por ser ilegal).

Exemplo usando o CD do jogo Crash Bandicoot 3 [PAL] (PSX):

  • Use o CDRWin versão 3.6b (ou maior) e crie uma imagem do CD (com 1 arquivo de dados tipo Mode2).
    O CUE-file deve parecer algo como:
    FILE "C:\TEMP\CRASH3.BIN" BINARY
    TRACK 01 MODE2/2352
    INDEX 01 00:00:00
  • Vá em CDRWin -> Record Disc -> Load Cuesheet e leia o Total Disc Time (deve ser 32:36:12).
  • Agora adicione outra (dummy) faixa de dados no fim do cue-file usando o notepad e coloque o Total Disc Time com menos 2 segundos(!).
    FILE "C:\TEMP\CRASH3.BIN" BINARY
    TRACK 01 MODE2/2352
    INDEX 01 00:00:00
    TRACK 02 MODE2/2352
    INDEX 01 32:34:12 <--  Total Disc Time (32:36:12) menos 2 segundos
  • Olhe no CDRWin -> Record Disc -> Disc Layout... e você verá que a faixa adicionada inicia em 32:36:12 (e não 32:34:12). O tempo é igual ao Lead Out starttime, daí ele não estará no intervalo da trilha de dados.
  • Agora grave o disco com o CDRWin e você terá um CD com 2 faixas de dados.

O jogo Crash Bandicoot 3 funciona perfeito no Playstation.

O programa Nero Burning Rom é o único programa que poderá fazer cópia deste CD criado/protegido, porém terá que usar o Gravador de CD como um leitor de CD. O disco não poderá ser copiado usando um leitor de CD comum!

Este truque também funciona com CDs de Áudio e Mixed Mode.

Para criar um CD Mixed-Mode com uma TOC inválida, subtraia 4 segundos do tempo total ao invés de 2 segundos (apenas subtraia segundos enquanto o CDRWin aceitar o CUE-Sheet). Tenha em mente que no CDRWin o tempo total da nova faixa te que ser ao menos o "lead-out time".

Usando HARD e SOFTWARE:

  • Plextor PX-R412C
  • Plextor PX-20TS
  • Midia: Philips Silver Premium
  • CDRWin v3.6b & v3.7a (Win98)

Método 2

Aqui segue um outro exemplo de proteger contra cópia seu CD de Dados, adicionando uma trilha "dummy" de tal modo que o disco de backup terá 2 trilhas de dados.

Se o segundo track for de um diferente "CD mode" do primeiro, então o CD não será copiável. Testado com o "Heroes of Might & Magic 3" , o NERO, CDRWin e o EasyCD não foram capazes de copiá-lo.

Use o seguinte CUE-Sheet para o CDRWin gravar o CD.

FILE "HMM3.BIN" BINARY
TRACK 01 MODE1/2352
INDEX 01 00:00:00
TRACK 02 MODE2/2352
INDEX 01 73:30:45

Método 3 - Usando o FreeLock (Xperience)

Freelock (freeware) altera o layout de uma imagem de CD antes de gravar, tornando a cópia resultante virtualmente impossível de ser duplicada. Isto previne de outras pessoas fazerem cópias de suas cópias.

Freelock roda a partir de um disco flexível propositalmente danificado. Este "defeito" no disco é parte do processo de proteção.

Método 4 - Usando o Encryption Plus for CDROM (PC Guardian)

Encryption Plus for CD-ROM (EPCD) é uma aplicação de encriptação desenhada para encriptar informações que requeiram proteção contra acesso por pessoas não autorizadas.

Um CDROM encriptado com o EPCD pode ser acessado, os diretórios e os nomes dos arquivos são legíveis, entretanto o conteúdo dos diretórios e dos arquivos não pode ser abertos ou vistos.

Um aplicativo de decriptação no micro do usuário deve ser instalado de forma a fazer a decriptação "on-the-fly". Após a instalação deste aplicativo, esta operação é totalmente transparente para o usuário.

NOTA: O EPCD é shareware e pode ser avaliado por 30 dias, após este período o produto deve ser comprado (atualmente: US$ 69.97).

Método 5 - Usando o CDRCue (DC Software Design)

O CDRCueSheet Editor é um editor de cuesheet para o CDRWIN e DAO.

NOTA: O CDRCUE é shareware e pode ser avaliado por 60 dias, após este período o produto deve ser comprado (atualmente: US$ 14.95).

 
Indique esta dica Indique esta dica para um amigo

VOLTAR